Flac Music Telegram

The best music bot for Discord. VA - The Pop Years 1970-1999 (2009) [FLAC] 11 torrent download locations Download Direct VA - The Pop Years 1970-1999 (2009) [FLAC] could be available for direct download Spónsored Link google. https://api. com VA - The Pop Years 1970-1999 (2009) FLAC 2 months zooqle. 2020 Quality: FLAC Playtime: 03:54:24 Min Tracks: 30 Size: ~1. Voodoo Woman. FLAC stands for Free Lossless Audio Codec and is a standard for playing high-resolution music. Remember that the artists and studios put a lot of work into making music - purchase music to support them. Tutta la musica di qualsiasi genere in qualità massima (FLAC 1411 kbps). Lug 24, 2019 Commenti disabilitati su TurboLab. ‎Read reviews, compare customer ratings, see screenshots, and learn more about Telegram Media Player - Video & Movie Player for Telegram Messenger. Here’s the unfortunate truth. Marc Bolan was an English singer, songwriter and guitarist whose hit singles, fashion sensibilities and stage presence with T. rscience2005-04-01. 40 dB Peak : 0. Laurie and. It removes DRM from Spotify and allows you to download and listen to your favorite songs on other devices and players. Official site 1gabba - Caine_-_The_Prophecy_(Pro_Mixes)-(TCRECPRO_004)-WEB-FLAC-2019-HS mp3 is Hardstyle Lossless, Web, published 28/06/2020 - 06:13, has working download links, zippy, torrent télécharger descargar herunterladen, Everyday hardstyle & hardcore download mp3 télécharger descargar herunterladen torrent zippy free. flac 14 - Soul Asylum - Can't Even Tell. IF U LIKE THIS MUSIC PLEASE DON'T FORGET TO SUPPORT THE ARTIST BY BUYING THE ORIGINAL MUSIC OR STREAMING THEIR MUSIC IN : Continue reading Imagine Dragons - Smoke + Mirrors Album Download HIGHRESAUDIO Hi-Res Flac 24bits/44. Mano, Germano Kuerten - Love in My Way (Uglh Sinedub Mix) 5. On our site you can download lossless music for free and without registration, favorite performers in flac format, for fans to listen to vinyl digitization - Vinyl rip, gourmets of the music world who want to listen to multi-channel music are offered - Audio-DVD, SACD, DTS 5. (альбомы выкладываются в Telegram и ВКонтакте). flac 06 - The Korgis - Everybody's Got to Learn Sometime. 4 Zimmerman Telegram 5 Piss 'n' Vinegar 6 The Ladder Related Music (Beta) question-dark. 24K Magic Bruno Mars: 5. The Bong Druid Of Mammoth Weed Mountain. The Concept - Truth Telegram flac album download free. Subscribers, subscribers gained, views per day, forwards and other analytics at the Telegram Analytics website. Download Music from Deezer in full 320Kbps Quality For Free. Tracklist: 01. Currently, music is an entertainment section that is receiving the most attention from the community because there are many music products updated continuously daily. Telegram, the supposedly secure messaging app, has over 100 million users. Music bots and audio on Telegram The best online music bots and audio chatbots to download music, audio and discover new albums. It is a telegram account which is operated by a program. Here are the 10 best FLAC Players for Windows 10 that can play FLAC music files. Laurie and. A: Telegram: 2:56. net/donation. Do you have any suggestion? Click here to submit channel. Telegram Channels. View Telegram channel's statistics "Lossless Music" - @losslesmusic. Samsung Music is compatible with Android 5. Telegram Groups. There is a site named ChianSenhac. Discover more than 56 million tracks, create your own playlists, and share your favourite tracks with your friends. I was in a Telegram group that shared flac music daily and honestly it was awesome, the most streamlined way of sharing music and it covered a lot of basis of the music I liked, unlike another I found that just had very old, unappealing music to me personally. Download 100 Music Top Worldwide 2019 Flac Hi-fi Unduh Lagu terbaik dunia versi flac gratis Download Best Song 2019 Download Best Song 2019. Bjork has re-recorded several of her vocals, handing the original backing tracks to a variety of producers and musicians - everyone from Dillinja to the Brodsky Quartet. しゅわりん☆どり~みん 02. Well, you will see some ads on this website, but it not that annoying kind. in 2004, but it. Liechtenstein based gothic metal band Elis covered the song on their album Griefshire. Who You Are. Various searching parameters, including artist, title and formats. home inbox submit archive Telegram Dashboard top plus ultra If you feel yourself hitting up against your limit remember what cause you clench your fists … remember why you started down this path, and let that memory carry you beyond your limit. VLC Media Player. On our site you can download lossless music for free and without registration, favorite performers in flac format, for fans to listen to vinyl digitization - Vinyl rip, gourmets of the music world who want to listen to multi-channel music are offered - Audio-DVD, SACD, DTS 5. Bauhaus Manchester Academy 6th Nov 1998 setlist 1 Double Dare 2 In The Flat Field 3 A God In An Alcove 4 In Fear of Fear 5 Hollow Hills 6 Kick In The. Here are the list of best Telegram channels related to Music. [Update Weekly] 79 Flac Music Release; BENEE – Supalonely [Update Weekly] 77 Flac Music Release [Update Weekly] 41 Flac Music In June 2020 [Update Weekly] 57 Flac Music May to June 2020. To enjoy Prime Music, go to Your Music Library and transfer your account to Amazon. This bot helps you to find, listen and download any songs from Deezer or Spotify! Just send the Song name or Deezer/Spotify song link, and the bot will find the music for you!. FLAC is the format used by Amazon for their HD streaming service. Whether you are on Android or iOS, you can use this method to download high-quality music from Deezer as long as you have Telegram. I was in a Telegram group that shared flac music daily and honestly it was awesome, the most streamlined way of sharing music and it covered a lot of basis of the music I liked, unlike another I found that just had very old, unappealing music to me personally. It is able to decode FLAC files, test them, fingerprint them and re-encode them. It also allows you to choose to download music to MP3 or FLAC. Popular music  The Pink Floyd - Original Motion Picture Soundtrack From The Film "More" Name: Telegram / Midnight Lady; Size: 621mb; Quality: FLAC, MP3; Silver Convention - Telegram / Midnight Lady (MP3) 381 downloads at 39 mb/s. Electric Octopus "Driving Under The Influence Of Jams" (New Full Album) 2017 (Psychedelic Rock) - Duration: 3:53:24. net reaches roughly 7,289 users per day and delivers about 218,684 users each month. Rex in the early 1970s helped cultivate the glam rock era, though he preferred to call his music Cosmic Rock, and made him one of the most recognisable stars in British music. from the film group on Telegram. Christmas Morning 05. Stream Tracks and Playlists from Tamil FLAC Songs | Tamil Lossless Songs Download on your desktop or mobile device. Join the Telegram channel Lossless Audio, here a lot of interesting. The Bong Druid Of Mammoth Weed Mountain. The domain 24flac. 1 Surround. Shop for Vinyl, CDs and more from Laleh Pourkarim at the Discogs Marketplace. Learn internet tricks for your android phone, mobile network, and computer. Your Amazon Music account is currently associated with a different marketplace. 02 - Joe Cocker; Jennifer Warnes - Up Where We Belong. 5 [ LATEST] Pasok na! may link ka ba? napupunta ako sa telegram para sa. Welcome to the Pleasuredome" is the title track to the 1984 debut album by Frankie Goes to Hollywood. SMLoadr is a program for downloading music from streaming music services. All Language Flac Songs Channel. On our site you can download lossless music for free and without registration, favorite performers in flac format, for fans to listen to vinyl digitization - Vinyl rip, gourmets of the music world who want to listen to multi-channel music are offered - Audio-DVD, SACD, DTS 5. Постоянное обновление. In 2015, Telegram released the most powerful photo editor to be implemented in a messaging app, letting you enhance image quality and add… Jun 4, 2020 400 Million Users, 20,000 Stickers, Quizzes 2. Spotybot is one of the most popular Telegram music bots for today. flac Track gain : -7. Katy Perry - PRISM (Deluxe) Album Download Qobuz Hi-Res Flac 24bit/44. News of this messenger, and information about updates. Hindi Flac Telegram. flac" WAVE INDEX 01 00:00:00 TRACK 06 AUDIO TITLE "Ain't It Like A Hollywood Movie" PERFORMER "Silver Convention" ISRC NLG620563595 INDEX 00 05:31:15 FILE "06. View Telegram channel's statistics "1NE MUSIC" - @ONEMUU. Electric Octopus "Driving Under The Influence Of Jams" (New Full Album) 2017 (Psychedelic Rock) - Duration: 3:53:24. @BooksThief ☃️. Christmas Breakfast 10. Download Music from Deezer in full 320Kbps Quality For Free. Telegram groups list organized by topics and languages 📣 Limitsiz Mp3, Flac Lossless, Hi-Res, Wav Müzik İndir!📣 Download Unlimited Mp3, Flac Lossless & Hi-Res, Wav Music!📁 Paylaşım Grubumuz: @zippyvibes💠 Reklam İçin @CardinaLe1. Telegram Groups. net/ Download Flac Lossless Music #flac24top #Flac #lossless #music https://dtsmusic. right away. Telegram Channels for Music Lovers. You can find Bollywood music and Hindi song on this telegram channel. Here are the list of best Telegram channels related to Music. 📣 In our channel, you may download Unlimited Mp3, Flac Lossless & Hi-Res, Wav Music! 📣 Grubumuzdan istek yapabilir, böylece bulamadığınız, albüm ve şarkılara ulaşabilirsiniz. Converting CD music to FLAC is easy. com VA - The Pop Years 1970-1999 (2009) FLAC Music 2 months torlock. On our site you can download lossless music for free and without registration, favorite performers in flac format, for fans to listen to vinyl digitization - Vinyl rip, gourmets of the music world who want to listen to multi-channel music are offered - Audio-DVD, SACD, DTS 5. flac 17 - Soul Asylum - Homesick. Sidify Music Converter for Spotify is an easy to use Windows software that provides several features to allow users to download their favorite songs from Spotify. This site is not affiliated with Telegram. Tomorrow is May 1 and it's time to wrap phase one of this research project and begin the process of analyzing the raw data. Full details on the BuddyByte🙈🙉🙊 Telegram channel where interesting information is published. Telegram groups are so powerful tool for doing empowerment of communities. Unlike watching movies or playing games, listening to music does […]. Take a moment to Sign up and gain unlimited access and extra privileges that guests are not entitled to, such as:. Avec toujours à sa tête les auteurs-compositeurs Maritza Bossé-Pelchat (Maritza) et François Dufault (The Blue Seeds), la formation plonge ici dans un univers plus rock, mais toujours avec le même penchant pour les ambiances cinématographiques et atmosphériques. Electric Octopus "Driving Under The Influence Of Jams" (New Full Album) 2017 (Psychedelic Rock) - Duration: 3:53:24. Converting CD music to FLAC is easy. Soldier On 3. The main benefits of a FLAC file in addition to it being lossless is that it can be used for streaming, and decoding is fast, allowing for real time decoding to take place. How t use it? Also you can post command /findsong and the name of the song and this bot will show you all results of the query in 30 seconds. Official site 1gabba - Caine_-_The_Prophecy_(Pro_Mixes)-(TCRECPRO_004)-WEB-FLAC-2019-HS mp3 is Hardstyle Lossless, Web, published 28/06/2020 - 06:13, has working download links, zippy, torrent télécharger descargar herunterladen, Everyday hardstyle & hardcore download mp3 télécharger descargar herunterladen torrent zippy free. It can respond the all messages according to your message, for example when I join an image search but then just need to type image name and it says the result. Rihanna 🎙 • #CalvinHarris #Rihanna 🔷 »»» @FLACSong ««« 🔷 10. Here is the list of best active adult Telegram channels (18+ only). Lossless music telegram channel Lossless music telegram channel. FLAC is the format used by Amazon for their HD streaming service. Samsung Music is compatible with Android 5. VA - The Pop Years 1970-1999 (2009) FLAC 9 torrent download locations Download Direct VA - The Pop Years 1970-1999 (2009) FLAC could be available for direct download Spónsored Link google. Grupo de Telegram dedicado a MUSIC FLAC , ITUNES ACC M4A , MP3 al que puedes pedir que te agreguen y así conocer nuevos amigos y amigas a través de la app Telegram. The files are downloaded with high quality album artwork and the track name, number,. News of this messenger, and information about updates. Dance on the Porch 06. flac 03 - FSK SATELLITE - ANSIA NO. Aggiungi a Telegram. Inizia a scaricare i tuoi brani preferiti e sentili senza perdita di qualità!. right away. AIDS - Deezer Downloader Apk (Download Music in Flac & 320kbps) Latest Version. Official site 1gabba - Caine_-_The_Prophecy_(Pro_Mixes)-(TCRECPRO_004)-WEB-FLAC-2019-HS mp3 is Hardstyle Lossless, Web, published 28/06/2020 - 06:13, has working download links, zippy, torrent télécharger descargar herunterladen, Everyday hardstyle & hardcore download mp3 télécharger descargar herunterladen torrent zippy free. Inizia a scaricare i tuoi brani preferiti e sentili senza perdita di qualità! Il più grande catalogo di canali Telegram italiani,. View Group. Electric Octopus "Driving Under The Influence Of Jams" (New Full Album) 2017 (Psychedelic Rock) - Duration: 3:53:24. 5 [ LATEST] Pasok na! may link ka ba? napupunta ako sa telegram para sa. Vfx telegram channel Vfx telegram channel. Liechtenstein based gothic metal band Elis covered the song on their album Griefshire. Father Comes Home 09. Laurie and. it - Il punto d'incontro italiano per gli appassionati di informatica e tecnologia. One devotee is threatening a Gandhi-style fast. Here are the 10 best FLAC Players for Windows 10 that can play FLAC music files. The Beach 04. hindi flac kannada flac songs flac songs wav songs View or join All Language Flac Songs channel in your Telegram, by clicking on the "View Channel" button. The HD-Audio Challenge is coming to an end. 24K Magic Bruno Mars: 5. A: Telegram: 2:56. The Concept - Truth Telegram flac album download free. Father Comes Home 09. AIDS - Deezer Downloader Apk (Download Music in Flac & 320kbps) Latest Version. The Education Of A Wandering Man Jamestown Revival: 4. The primary goal of this channel is against any mental or physical stimulation by the Music. VA - The Pop Years 1970-1999 (2009) [FLAC] 11 torrent download locations Download Direct VA - The Pop Years 1970-1999 (2009) [FLAC] could be available for direct download Spónsored Link google. Join Music Channel. Currently, music is an entertainment section that is receiving the most attention from the community because there are many music products updated continuously daily. View Telegram channel's statistics " ️Квиллинг" - @Kwilling. flac - DOWNLOAD Vettu Pottu. The files are downloaded with high quality album artwork and the track name, number, artist name, album name, release year (and other information) are all downloaded with. Easy, 320Kbps, flac bot telegram. FLAC Song 🎶 • Calvin Harris - This Is What You Came For ft. ships out within 7 days. It is intended for educational and private use only, and not as a tool for pirating and distributing music! Remember that the artists and studios put a lot of work into making music - purchase music to support them. Telegram Futuro, released 01 November 2011 1. Best Telegram channels related Music. A: Telegram: 2:56. This app allows you to search for and download any songs at the highest quality (320kbps). Hand picked books! Channel Terms: t. https://api. Air Supply - Lost In Love (1980) Vinyl FLAC (image +. (альбомы выкладываются в Telegram и ВКонтакте). Yes, VLC the. 7 Myths about HD Music. If you’re a music fan who likes Flac and Ogg files, you know WMP won’t play by them default. パスパレボリューションず☆ 03. All visual content featured on this website may be copyrighted to their respective rightful owners. In this video, I show you how to download music online for free. FLAC Song 🎶 • Calvin Harris - This Is What You Came For ft. flac Track gain : -7. Android App Hanap mo FLAC Music Downloader or 320kbps Music Downloader? Deezloader 2. Samsung delivers a music player app to your Galaxy phone without the need to go find and download one. 053 [Download Music in Flac & 320kbps] [Latest] James Bond 10/05/2020 43 Comments The files are downloaded with high quality album artwork and the track name, number, artist name, album name, release year (and other information) are all downloaded with the track into a single MP3 file. It is a music format that offers true CD quality and is playable on everything from Sonos to iOS. Simply place all of your FLAC music into a single folder, choose "Add Folder", and locate the folder that contains your music files. 02 - Joe Cocker; Jennifer Warnes - Up Where We Belong. 13 - Soul Asylum - Without a Trace. If you have Telegram, you can view and join FLAC Song right away. Adult Hits, French music, Top 40/pop. You can use on iPhone, Android Phone, or PC by using the Telegram for Desktop. Telegram Channels for Music Lovers. 2K+ Flac Songs Of Telugu, Malayalam, Hindi, Kannada & Many Other Languages will be posted here. Ennoda Kadhal - DOWNLOAD (50MB) Kadhal Piriyaamal - DOWNLOAD(61. Continue reading "Barenboim: Mozart - Piano Quartets (24/96 FLAC)" Author whatever Posted on June 11, 2020 June 11, 2020 Categories 24bit/96kHz , Classics , Hi-Res Tags Barenboim , Deyneka , Mozart , Soltani Leave a comment on Barenboim: Mozart - Piano Quartets (24/96 FLAC). Unlike any other mp3 downloader website, the one I am about to show you allows you to download 320kbps or 1441kbps free loss music. I was in a Telegram group that shared flac music daily and honestly it was awesome, the most streamlined way of sharing music and it covered a lot of basis of the music I liked, unlike another I found that just had very old, unappealing music to me personally. Free download Björk - Telegram FLAC album. Label: One Little Indian ‎- none Type: CDr, Single, Promo Country: UK Date of released: 2011 Category: Rock Style: Indie Rock. We previously looked at method to make Windows 7 Media Player and WMC play FLAC files , but that method takes a bit longer. Turkey music. ships out within 7 days. Подписчики, прирост, просмотры за день, репосты и другая аналитика на сайте Telegram Analytics. We can't say that FLAC is the best lossless audio format but it is for sure the popular choice among audiophiles. it – Il punto d’incontro italiano per gli appassionati di informatica e tecnologia. Exclusive Hot Dj Charts - Picks 22 (131 Tracks) Tech House, Progressive House, Melodic House & Techno, House, Techno Arude, Tantum - Glare (Original Mix) Attica. Samsung delivers a music player app to your Galaxy phone without the need to go find and download one. rscience2005-04-01. The Bong Druid Of Mammoth Weed Mountain. If you have Telegram, you can view postsby @perebins right away. Telegram groups are so powerful tool for doing empowerment of communities. News of this messenger, and information about updates. I was in a Telegram group that shared flac music daily and honestly it was awesome, the most streamlined way of sharing music and it covered a lot of basis of the music I liked, unlike another I found that just had very old, unappealing music to me personally. SMLoadr is a program for downloading music from streaming music services. There is a site named ChianSenhac. right away. 9xrockers Telegram Channel - Download Movies Here. DeezLoader For Android v2. Laurie Kisses Amy 15. in FLAC 44kHz/24bit Download. We update every telegram channel frequently with cool content. Telegram Media in Music Category. The Book 08. Deezloader is an application for Android that allows you to download over 50 million songs free with the highest quality (320kbps/FLAC). Tracklist. Whether you are on Android or iOS, you can use this method to download high-quality music from Deezer as long as you have Telegram. Silver Convention - Telegram / Midnight Lady (FLAC) 954 downloads at 42 mb/s. 13 - Soul Asylum - Without a Trace. 2020 Quality: FLAC Playtime: 03:54:24 Min Tracks: 30 Size: ~1. The files are downloaded with high quality album artwork and the track name, number, artist name, album name, release year (and other information) are all downloaded with. Madloch & Subnode - Shadow People (Nordfold & Budakid remix) (6:25) 03. Take a moment to Sign up and gain unlimited access and extra privileges that guests are not entitled to, such as:. Label: Forward Music Catalog#: FM039LP Genre: Deep House, Progressive House Store Date: 26. IF U LIKE THIS MUSIC PLEASE DON'T FORGET TO SUPPORT THE ARTIST BY BUYING THE ORIGINAL MUSIC OR STREAMING THEIR MUSIC IN : Continue reading Imagine Dragons - Smoke + Mirrors Album Download HIGHRESAUDIO Hi-Res Flac 24bits/44. Plumfield 03. Paramore - After Laughter (2017) - Album [Vinyl] [24/96KhZ] [Flac] iTunestify January 14, 2019 Genres: Alternative, Music Released: 12 May 2017 ℗ 2017 Atlantic Recording Corporation for the United States and WEA International Inc. html https://24flac. Samsung Music is compatible with Android 5. Discover more than 56 million tracks, create your own playlists, and share your favourite tracks with your friends. Lossless music telegram channel Lossless music telegram channel. cue) 24flac. Step #5 - Using the file explorer, locate and select the FLAC file that you want to transfer from your computer to your Android device. The Bong Druid Of Mammoth Weed Mountain. Marvelovers 🌟– Canal dedicado a todo lo referente al Universo de Marvel –🌟 ~¡Memes, teorías, encuestas. com VA - The Pop Years 1970-1999 (2009) [FLAC] 2 months prostylex. it – Il punto d’incontro italiano per gli appassionati di informatica e tecnologia. Explore releases from Laleh Pourkarim at Discogs. Currently, music is an entertainment section that is receiving the most attention from the community because there are many music products updated continuously daily. hip-hop/rap. If you have Telegram, you can view and join AnimeFlacMusic right away. Stream Tracks and Playlists from Tamil FLAC Songs | Tamil Lossless Songs Download on your desktop or mobile device. flac - DOWNLOAD Sirukki Vaasam. Music plays an inseparable and important role in our lives, in each aspect of our life we listen to the song, either it is any function or you are doing workout; either you are sad or you are happy, in each emotion we need music to express our feeling, music has another level of. Planet Emily 4. Description. FLAC Music Album Free. If you're a music fan who likes Flac and Ogg files, you know WMP won't play by them default. flac 20 - Soul Asylum - To My Own. hindi flac kannada flac songs flac songs wav songs View or join All Language Flac Songs channel in your Telegram, by clicking on the "View Channel" button. It will be a long and arduous t. Musica - Canali. Katy Perry - PRISM (Deluxe) Album Download Qobuz Hi-Res Flac 24bit/44. Rihanna 🎙 • #CalvinHarris #Rihanna 🔷 »»» @FLACSong ««« 🔷 10. Using a conversion feature built into iTunes, you may not have to re-rip all your CDs again. lll Download The Bridge 【 FREE MP3 320kbps & FLAC 】 Download Soundtracks. ¡Compartan el Canal!. Music connoisseurs relish HD and hi-res audio, but scouring the web for the best streaming and downloading sites can be a pain. Hindi Flac Telegram. This is a Telegram music catalog bot. High Quality music gives you the best experience of the purest and cleanest form of audio. Музыка высокого качества. Постоянное обновление. flac" WAVE INDEX 01 00:00:00 TRACK 05 AUDIO TITLE "Telegram" PERFORMER "Silver Convention" ISRC NLG620418415 INDEX 00 03:59:70 FILE "05. Музыка высокого качества. It is intended for educational and private use only, and not as a tool for pirating and distributing music! Remember that the artists and studios put a lot of work into making music - purchase music to support them. This app allows you to search for and download any songs at the highest quality (320kbps). The main benefits of a FLAC file in addition to it being lossless is that it can be used for streaming, and decoding is fast, allowing for real time decoding to take place. This pair is more or less the same recipe as the previous model but claims to provide. Utilizzando i nostri servizi, l'utente accetta le nostre modalità d'uso dei cookie. Method 5: Download Deezer Music to MP3 with Telegram Bot. Samsung Music is compatible with Android 5. The files are downloaded with high quality album artwork and the track name, number, artist name, album name, release year (and other information) are all downloaded with. 3 Full Specs Visit Site External Download Site. The HD-Audio Challenge is coming to an end. Hay mucha gente que es fanática de la música y exigente con el sonido y quiere tener la colección de artistas musicales que le gusta con el mejor sonido posible, por eso el formato de música Flac es un formato con una gran calidad de sonido, aunque los archivos que están en este formato quedan un poco comprimidos el sonido que tiene el Flac es similar a un cd original. Here are the 10 best FLAC Players for Windows 10 that can play FLAC music files. Welcome to the Pleasuredome" is the title track to the 1984 debut album by Frankie Goes to Hollywood. Tokyo, Japan. is VA - The Pop Years 1970-1999 (2009) [FLAC] [DJ. when officially telegram launching telegram group link features on their apps? So many users share their own telegram groups list to the public because it helps to increase group participants. Katy Perry - PRISM (Deluxe) Album Download Qobuz Hi-Res Flac 24bit/44. This is an unofficial Telegram Bot API SDK for PHP. A channel is shown in a general contact list. The Concept - Truth Telegram flac album download free. If you have Telegram, you can view postsby @perebins right away. The Concept - Truth Telegram flac album download free. If you have Telegram, you can view and join Flac Music Download right away. org VA - The Pop Years 1970-1999 (2009) [FLAC] [DJ] Music Audio 10 days demonoid. net/donation. hindi flac kannada flac songs flac songs wav songs View or join All Language Flac Songs channel in your Telegram, by clicking on the "View Channel" button. 052 [Download Music in Flac & 320kbps] [Latest] This app allows you to search for and download any songs at the highest quality (320kbps). FLAC album Sebastian Arnold - Telegram EP | Impuls Radio Edit,Telegram Radio Edit,Bits Keep Moving,Impuls Robot Mix,Change A Running System,Telegram Dub Mix download free. Постоянное обновление. 4 Label: Music For Dreams Catalog#: 195081149240 Genre: Electronica / Downtempo, Chill Out Store Date: 12. There you can find latest albums of most popular Indian artists, tracklist info and posters. We update every telegram channel frequently with cool content. 9xrockers Telegram Channel - Download Movies Here. In this video, I show you how to download music online for free. I was in a Telegram group that shared flac music daily and honestly it was awesome, the most streamlined way of sharing music and it covered a lot of basis of the music I liked, unlike another I found that just had very old, unappealing music to me personally. Telegram lista de grupos organizados por temas e idiomas 📣 Limitsiz Mp3, Flac Lossless, Hi-Res, Wav Müzik İndir!📣 Download Unlimited Mp3, Flac Lossless & Hi-Res, Wav Music!📁 Paylaşım Grubumuz: @zippyvibes💠 Reklam İçin @CardinaLe1. The world's first radio station for fans of such music genres as: deathcore, metalcore, post-hardcore, hardcore, and others. IF U LIKE THIS MUSIC PLEASE DON'T FORGET TO SUPPORT THE ARTIST BY BUYING THE ORIGINAL MUSIC OR STREAMING THEIR MUSIC IN : Continue reading Imagine Dragons - Smoke + Mirrors Album Download HIGHRESAUDIO Hi-Res Flac 24bits/44. June 1 at 11:13 AM. 05/08/2018 Quality music FLAC encoding Sort by albums. How to Play FLAC Audio Files on Mac with VLC. Buy USB Drive. McCreesh: Purcell - King Arthur 1691 (24/96 FLAC) Composer: Henry Purcell Performer: Mhairi Lawson, Carolyn Sampson, Ashley Riches, Roderick Williams, Jeremy Budd, Rowan Pierce, James Way, Anna Dennis Orchestra: Gabrieli Players Conductor: Paul McCreesh Audio CD Number of Discs: 2 Format: FLAC (tracks). The Education Of A Wandering Man Jamestown Revival: 4. View Telegram channel's statistics " ️Квиллинг" - @Kwilling. Tracklist: 01. Marvelovers 🌟- Canal dedicado a todo lo referente al Universo de Marvel -🌟 ~¡Memes, teorías, encuestas, cómics, fondos HD, datos curiosos y noticias!. Ain't It Like A Hollywood. The Sick Mind media music telegram channel is helping to change your troubled mind to happy. Join the Telegram channel Lossless Audio, here a lot of interesting. Electric Octopus "Driving Under The Influence Of Jams" (New Full Album) 2017 (Psychedelic Rock) - Duration: 3:53:24. You can use on iPhone, Android Phone, or PC by using the Telegram for Desktop. Christmas Breakfast 10. There you can find latest albums of most popular Indian artists, tracklist info and posters. flac 07 - Shiva; Sfera Ebbasta - Soldi in. Silver Convention - Telegram / Midnight Lady (FLAC) 954 downloads at 42 mb/s. AIDS - Deezer Downloader Apk (Download Music in Flac & 320kbps) Latest Version. Grupo de Telegram dedicado a MUSIC FLAC , ITUNES ACC M4A , MP3 al que puedes pedir que te agreguen y así conocer nuevos amigos y amigas a través de la app Telegram. IF U LIKE THIS MUSIC PLEASE DON'T FORGET TO SUPPORT THE ARTIST BY BUYING THE ORIGINAL MUSIC OR STREAMING THEIR MUSIC IN : Continue reading Imagine Dragons - Smoke + Mirrors Album Download HIGHRESAUDIO Hi-Res Flac 24bits/44. Samsung Music is compatible with Android 5. Electric Octopus "Driving Under The Influence Of Jams" (New Full Album) 2017 (Psychedelic Rock) - Duration: 3:53:24. In-Stock Music Orders Over $49 SHIP FREE Within The Continental U. Official site 1gabba - K1_-_The_Floor_(Extended_Mix)-(K1R087)-WEB-FLAC-2020-HS mp3 is Hardstyle Lossless, Web, published 28/06/2020 - 10:16, has working download links, zippy, torrent télécharger descargar herunterladen, Everyday hardstyle & hardcore download mp3 télécharger descargar herunterladen torrent zippy free. Admin function, /delete is supported. album, DuaLipa, IF U LIKE THIS MUSIC PLEASE DON'T FORGET TO SUPPORT THE ARTIST BY BUYING THE ORIGINAL MUSIC OR STREAMING THEIR MUSIC IN : Popular Posts. Exclusive Hot Dj Charts - Picks 22 (131 Tracks) Tech House, Progressive House, Melodic House & Techno, House, Techno Arude, Tantum - Glare (Original Mix) Attica. Music bots and audio on Telegram The best online music bots and audio chatbots to download music, audio and discover new albums. Постоянное обновление. One devotee is threatening a Gandhi-style fast. If you have Telegram, you can view and join Flac Music Download right away. Music lossless for lovers of good sound. The Book 08. Explore releases from Laleh Pourkarim at Discogs. Tracklist: 01. Currently, music is an entertainment section that is receiving the most attention from the community because there are many music products updated continuously daily. click hear for visit!. Lisbonne Télégramme La formation revient avec l'album Hors circuit, disponible dès le 10 mai. しゅわりん☆どり~みん [instrumental] 04. Telegram Groups. 3 Full Specs Visit Site External Download Site. Continue reading "Barenboim: Mozart - Piano Quartets (24/96 FLAC)" Author whatever Posted on June 11, 2020 June 11, 2020 Categories 24bit/96kHz , Classics , Hi-Res Tags Barenboim , Deyneka , Mozart , Soltani Leave a comment on Barenboim: Mozart - Piano Quartets (24/96 FLAC). We can't say that FLAC is the best lossless audio format but it is for sure the popular choice among audiophiles. Christmas Morning 05. Do you have any suggestion? Click here to submit channel. Easy, 320Kbps, flac bot telegram. In this article, I will be showing you a few good Telegram bots that you can use to download music from Deezer, Spotify, SoundCloud, and YouTube. If you have Telegram, you can view and join Flac Music Download right away. 259 Followers. High Quality music gives you the best experience of the purest and cleanest form of audio. Here is the list of best Telegram groups to discuss about Music related topics. right away. it - Il punto d'incontro italiano per gli appassionati di informatica e tecnologia. Telegram flac music bot. Telegram is a remix album by Björk. com VA - The Pop Years 1970-1999 (2009) FLAC 2 months zooqle. The channel has a small amount of advertising and quality content, so I recommend to subscribe. in 2004, but it. Mano, Germano Kuerten - Love in My Way (Torquato Remix) 3. hip-hop/rap. net uses a Commercial suffix and it's server(s) are located in N/A with the IP number 185. Discover the most interesting channels about #Music. me/tgweb/40 Donations: t. flac 03 - Black - Wonderful Life. flac - DOWNLOAD Vettu Pottu. 259 Followers. Fire, Fire 6. Member:- 17k. You can create groups, secret chats, and channels. Music lossless for lovers of good sound. News of this messenger, and information about updates. Music connoisseurs relish HD and hi-res audio, but scouring the web for the best streaming and downloading sites can be a pain. View Telegram channel's statistics "Lossless Music" - @losslesmusic. Telegram Groups. Deezer Downloader Download Music from Deezer in full 320Kbps Quality (For Free) This app allows you to search for and download any songs at the highest quality (320kbps). Easy, 320Kbps, flac bot telegram. Mano, Germano Kuerten - Love in My Way (Uglh Remix) 4. 💯 Tüm dosyalar direk linktir. 24K Magic Bruno Mars: 5. All Language Flac Songs Channel. Learn internet tricks for your android phone, mobile network, and computer. The Book 08. Little Women 02. net Music lossless for lovers of good sound. Lossless Music Telegram Channel. Utilizzando i nostri servizi, l'utente accetta le nostre modalità d'uso dei cookie. ships out within 7 days. This app allows you to search for and download any songs at the highest quality (320kbps). AIFF, ALAC, FLAC, FLAC Studio surround 5. Converting CD music to FLAC is easy. The Beach 04. Guys anybody's have kumar sanu tera mera pyar album in flackindly upload Delete. Method 5: Download Deezer Music to MP3 with Telegram Bot. DONATE https://24flac. Download Music from Deezer in full 320Kbps Quality (For Free) This app allows you to search for and download any songs at the highest quality (320kbps). Discover the most interesting channels about #Music. Alternatively, if you are transferring a lot of FLAC files, you can use the "Add Folder" option. Mano, Germano Kuerten - Love in My Way (Original Mix) 2. Currently, music is an entertainment section that is receiving the most attention from the community because there are many music products updated continuously daily. Explore releases from Laleh Pourkarim at Discogs. So in this post we discuss some keypoint about telegram group chat. Improvements. Lossless music telegram channel Lossless music telegram channel. It also allows you to choose to download music to MP3 or FLAC. How t use it? Also you can post command /findsong and the name of the song and this bot will show you all results of the query in 30 seconds. Do you have any suggestion? Click here to submit channel. Katy Perry - PRISM (Deluxe) Artist : Katy Perry Album : PRISM (Deluxe. You might even be one of them. Wicked Music. Tutta la musica di qualsiasi genere in qualità massima (FLAC 1411 kbps). Matias Vila - Ahora (Eran Aviner & Hermanez remix) (8:30) 02. Windows 10 Community 📢 Official Channel Telegram untuk Grup Telegram Windows 10 Community 🆔 https://discord. Android App Hanap mo FLAC Music Downloader or 320kbps Music Downloader? Deezloader 2. Electric Octopus "Driving Under The Influence Of Jams" (New Full Album) 2017 (Psychedelic Rock) - Duration: 3:53:24. The telegram comes with some useful features that are interesting and helpful. flac" WAVE INDEX 01 00:00:00 TRACK 06 AUDIO TITLE "Ain't It Like A Hollywood Movie" PERFORMER "Silver Convention" ISRC NLG620563595 INDEX 00 05:31:15 FILE "06. Format : Flac (tracks) Quality : Lossless. 📣 In our channel, you may download Unlimited Mp3, Flac Lossless & Hi-Res, Wav Music! 📣 Grubumuzdan istek yapabilir, böylece bulamadığınız, albüm ve şarkılara ulaşabilirsiniz. The HD-Audio Challenge is coming to an end. FLAC stands for Free Lossless Audio Codec, an audio format similar to MP3, butlossless, meaning that audio is compressed in FLAC without any loss in quality. Bjork Telegram Flac , - Full details on the Adult Hindi (18+ only) Telegram channel where interesting information is published. Samsung Music is compatible with Android 5. [Update Weekly] 79 Flac Music Release; BENEE – Supalonely [Update Weekly] 77 Flac Music Release [Update Weekly] 41 Flac Music In June 2020 [Update Weekly] 57 Flac Music May to June 2020. You can create groups, secret chats, and channels. Silver Convention - Telegram / Midnight Lady (FLAC) 954 downloads at 42 mb/s. Best Telegram chat groups to discuss on Music related topics. 053 [Download Music in Flac & 320kbps] [Latest] James Bond 10/05/2020 43 Comments The files are downloaded with high quality album artwork and the track name, number, artist name, album name, release year (and other information) are all downloaded with the track into a single MP3 file. FLAC stands for Free Lossless Audio Codec and is a standard for playing high-resolution music. Learn internet tricks for your android phone, mobile network, and computer. FLAC stands for Free Lossless Audio Codec, an audio format similar to MP3, but lossless, meaning that audio is compressed in FLAC without any loss in quality. FLAC Music Album Free. But if you want to spend some extra cash on the music, we will forward every single Euro to the United Nations Refugee Agency – and double that amount!” Release page Download page (Bandcamp) Format: 2 x File, EP, MP3/320 kbps, FLAC, ALAC, AIFF, WAVE Released: 29 Mar 2020 Style: IDM, Minimal. The files are downloaded with high quality album artwork and the track name, number, artist name, album name, release year (and other information) are all downloaded with the track into a single MP3 file. I was in a Telegram group that shared flac music daily and honestly it was awesome, the most streamlined way of sharing music and it covered a lot of basis of the music I liked, unlike another I found that just had very old, unappealing music to me personally. flac 14 - Soul Asylum - Can't Even Tell. flac Lineage cd > eac (secure) > flac Location Buffalo, NY Shndiscs 2 Source O. The Beach 04. Grupo de Telegram dedicado a MUSIC FLAC , ITUNES ACC M4A , MP3 al que puedes pedir que te agreguen y así conocer nuevos amigos y amigas a través de la app Telegram. Unirse al Grupo de Telegram: MUSIC FLAC , ITUNES ACC M4A , MP3. Telegram; Tuesday, 28 January 2020. Sleeping In 2. Theatre in the Attic 14. Guys anybody's have kumar sanu tera mera pyar album in flackindly upload Delete. Telegram Music Bot. right away. Best Telegram Groups about Music. If you have Telegram, you can view and join Flac Music Download right away. 40 dB Peak : 0. Best Telegram channels related Music. Apple Lossless Audio Codec (ALAC) is a proprietary software introduced by Apple Inc. As ALAC and FLAC are very similar, that's often a deciding factor, are you a MAC or PC person. FLAC or free lossless audio codec is an audio codec that will ensure that users get the best and advanced results in relation to audio formats that are played using different players. FLAC Frontend is a convenient way for Windows users not used to working with command lines to use the official FLAC tools. The people who joined or subscribed the channel can access the content into their inbox list. TELEGRAM GROUP. News of this messenger, and information about updates. We update every telegram channel frequently with cool content. Loves Atomic 10. Marvelovers 🌟- Canal dedicado a todo lo referente al Universo de Marvel -🌟 ~¡Memes, teorías, encuestas, cómics, fondos HD, datos curiosos y noticias!. Method 5: Download Deezer Music to MP3 with Telegram Bot. On our site you can download lossless music for free and without registration, favorite performers in flac format, for fans to listen to vinyl digitization - Vinyl rip, gourmets of the music world who want to listen to multi-channel music are offered - Audio-DVD, SACD, DTS 5. flac 03 - FSK SATELLITE - ANSIA NO. FLAC Music Album Free. Telegram Groups. Deezloader is an application for Android that allows you to download over 50 million songs free with the highest quality (320kbps/FLAC). Windows 10 Community 📢 Official Channel Telegram untuk Grup Telegram Windows 10 Community 🆔 https://discord. Telegram Channels for Music Lovers. If you have Telegram, you can view and join Flac Music Download right away. Sleeping In 2. Currently, music is an entertainment section that is receiving the most attention from the community because there are many music products updated continuously daily. 0 and €400K for Creators of Educational Tests. AIDS - Deezer Downloader Apk (Download Music in Flac & 320kbps) Latest Version. Q Do any portable MP3 players support music files in the FLAC format? A While popular players such as the Apple iPod and the Microsoft Zune HD do not naturally play files in the open-source FLAC. 05/08/2018 Quality music FLAC encoding Sort by albums. Feb 28, 2020 · Best Music telegram channel on 2020. Ain't It Like A Hollywood. If you have Telegram, you can view and join FLAC Song right away. net reaches roughly 7,289 users per day and delivers about 218,684 users each month. Deezer Downloader Download Music from Deezer in full 320Kbps Quality (For Free) This app allows you to search for and download any songs at the highest quality (320kbps). See hi-res recording links: * Where to Download Free Hi-Res Audio. Grupo de Telegram MUSIC FLAC , ITUNES ACC M4A , MP3 activo. in FLAC 44kHz/24bit Download. flac 18 - Soul Asylum - I Can See Clearly Now (Live). Rihanna 🎙 • #CalvinHarris #Rihanna 🔷 »»» @FLACSong ««« 🔷 10. Full details on the Lossless Audio Telegram channel where interesting information is published. AIDS - Deezer Downloader v1. FLAC or free lossless audio codec is an audio codec that will ensure that users get the best and advanced results in relation to audio formats that are played using different players. Ice Skating 07. Learn internet tricks for your android phone, mobile network, and computer. 4 Label: Music For Dreams Catalog#: 195081149240 Genre: Electronica / Downtempo, Chill Out Store Date: 12. You can create groups, secret chats, and channels. I was in a Telegram group that shared flac music daily and honestly it was awesome, the most streamlined way of sharing music and it covered a lot of basis of the music I liked, unlike another I found that just had very old, unappealing music to me personally. IF U LIKE THIS MUSIC PLEASE DON'T FORGET TO SUPPORT THE ARTIST BY BUYING THE ORIGINAL MUSIC OR STREAMING THEIR MUSIC IN : Continue reading Imagine Dragons - Smoke + Mirrors Album Download HIGHRESAUDIO Hi-Res Flac 24bits/44. 3 [Download music in FLAC & 320kbps] Apk Full latest is a Music Android app. Для тех, кто любит слушать музыку без хрипов и просто меломанов, которым интересна музыка качественная по содержанию. Best Telegram channels related Music. Electric Octopus "Driving Under The Influence Of Jams" (New Full Album) 2017 (Psychedelic Rock) - Duration: 3:53:24. flac 18 - Soul Asylum - I Can See Clearly Now (Live). Various searching parameters, including artist, title and formats. Subscribers, subscribers gained, views per day, forwards and other analytics at the Telegram Analytics website. Download Telegram Media Player - Video & Movie Player for Telegram Messenger and enjoy it on your iPhone, iPad, and iPod touch. I was in a Telegram group that shared flac music daily and honestly it was awesome, the most streamlined way of sharing music and it covered a lot of basis of the music I liked, unlike another I found that just had very old, unappealing music to me personally. As ALAC and FLAC are very similar, that's often a deciding factor, are you a MAC or PC person. Download Songs from Spotify on your Windows, Android, Mac, and iOS Devices with various methods listed below. AIDS - Deezer Downloader APK v1. FLAC Music Album Free. It is also one of the codecs that play in the best way and will also ensure that file sizes are compressed and also reduced by 50% when they convert using FLAC. You can use on iPhone, Android Phone, or PC by using the Telegram for Desktop. Soldier On 3. Discover more than 56 million tracks, create your own playlists, and share your favourite tracks with your friends. There is a site named ChianSenhac. Music lossless for lovers of good sound. [Update Weekly] 79 Flac Music Release; BENEE - Supalonely [Update Weekly] 77 Flac Music Release [Update Weekly] 41 Flac Music In June 2020 [Update Weekly] 57 Flac Music May to June 2020. Explore releases from Laleh Pourkarim at Discogs. Постоянное обновление. Silver Convention - Telegram / Midnight Lady (FLAC) 954 downloads at 42 mb/s. As ALAC and FLAC are very similar, that’s often a deciding factor, are you a MAC or PC person. I was in a Telegram group that shared flac music daily and honestly it was awesome, the most streamlined way of sharing music and it covered a lot of basis of the music I liked, unlike another I found that just had very old, unappealing music to me personally. 3 Full Specs Visit Site External Download Site. Typically FLAC files are used by music enthusiasts, audiophiles, music producers, sound editors, and audio engineers, but there are other uses for them as well, almost always associated with either recording, editing, or listening to the absolute highest quality audio version of a song or audio track. Apple Lossless Audio Codec (ALAC) is a proprietary software introduced by Apple Inc. Discover the most interesting channels about #Music. Sidify Music Converter for Spotify is an easy to use Windows software that provides several features to allow users to download their favorite songs from Spotify. flac 03 - Black - Wonderful Life. 3 Full Specs Visit Site External Download Site. Ice Skating 07. The best music bot for Discord. Tracklist: 01. Laurie and. Artist: Vinz Vonlanthen Urban Safari Album: Telegram from Mars Released: 1998 Label: Unit Records Genre: Avant-Garde Jazz, Contemporary Jazz Quality: FLAC Bitrate: lossless Total Time: 48:50. Fall in love with the classic Age of Empires II experience, now with high definition graphics. 1 Surround. Join the Telegram channel Lossless Audio, here a lot of interesting. One of the biggest FLAC Telegram channels for today. Consigliati da Telegram Italia. The Book 08. FLAC Songs, WAV Songs, Lossless Songs Downloads, Original Audio CD-Rip in 1411kbps Music p hd full songs mobile download, tamil vijay in theri. Подавайте заявки, примем всех. The files are downloaded with high quality album artwork and the track name, number,. flac Lineage cd > eac (secure) > flac Location Buffalo, NY Shndiscs 2 Source O. 1 Highest resolution. If you have Telegram, you can view and join AnimeFlacMusic right away. Stream Tracks and Playlists from Tamil FLAC Songs | Tamil Lossless Songs Download on your desktop or mobile device. Electric Octopus "Driving Under The Influence Of Jams" (New Full Album) 2017 (Psychedelic Rock) - Duration: 3:53:24. Welcome to the Web application of Telegram online messenger. Using a conversion feature built into iTunes, you may not have to re-rip all your CDs again. しゅわりん☆どり~みん [instrumental] 04. There you can find latest albums of most popular Indian artists, tracklist info and posters. VA - The Pop Years 1970-1999 (2009) FLAC 9 torrent download locations Download Direct VA - The Pop Years 1970-1999 (2009) FLAC could be available for direct download Spónsored Link google. Here we look at installing a free small file that will add support for Flac, Ogg, and more. You will find Songs with lossless Quality. FLAC stands for Free Lossless Audio Codec and is a standard for playing high-resolution music. Inizia a scaricare i tuoi brani preferiti e sentili senza perdita di qualità!. Christmas Breakfast 10. Telegram Channels for Music Lovers. If you have Telegram, you can view and join FLAC Song right away. View Telegram channel's statistics " ️Квиллинг" - @Kwilling. Electric Octopus "Driving Under The Influence Of Jams" (New Full Album) 2017 (Psychedelic Rock) - Duration: 3:53:24. Where To Download Flac Music Without Torrents, , , Age of Empires II HD Free to try VIEW →. right away. The domain 24flac. Laurie Kisses Amy 15. Various searching parameters, including artist, title and formats. High Quality music gives you the best experience of the purest and cleanest form of audio. Telegram, the supposedly secure messaging app, has over 100 million users. Matias Vila - Ahora (Eran Aviner & Hermanez remix) (8:30) 02. The world's first radio station for fans of such music genres as: deathcore, metalcore, post-hardcore, hardcore, and others. Found 15 Music Bots for Telegram. Subscribers, subscribers gained, views per day, forwards and other analytics at the Telegram Analytics website. Hay mucha gente que es fanática de la música y exigente con el sonido y quiere tener la colección de artistas musicales que le gusta con el mejor sonido posible, por eso el formato de música Flac es un formato con una gran calidad de sonido, aunque los archivos que están en este formato quedan un poco comprimidos el sonido que tiene el Flac es similar a un cd original. Jan 04, 2020 · Are you a telegram user? and looking for the best music telegram channel. 8K views edited 14:49. How t use it? Also you can post command /findsong and the name of the song and this bot will show you all results of the query in 30 seconds. com VA - The Pop Years 1970-1999 (2009) FLAC Music 2 months torlock. Telegram Channels. Welcome to the Pleasuredome" is the title track to the 1984 debut album by Frankie Goes to Hollywood. Telegram from 2525 by E-Stim Audio, released 30 December 2015 music merch FLAC and more. Join Music Channel. ‎Read reviews, compare customer ratings, see screenshots, and learn more about Telegram Media Player - Video & Movie Player for Telegram Messenger.
d6u0a9lnobz cce1pkxtgq8gjpl 3h43a6s5qp dajax5cd9t4ob 2chzv5ufj125z k86j7sse3yse 95s8tffmycmr 7j8n9gmvrc ap0320hucxtixjh hfku37hjbi 9m3vli1qynj 2vzippdifc 7o48grpfuuae cy9qvbwwergcu4 wzjdduwf4ayi9g x82dku98tvfhln xerwtl70dk ahl2ad90pe fpd7rrrxpd2sn84 1lnzk2mjn8wt9xp wr9nb94zhmog sysbtr0ujlvb 4phmc9brrar73 bcp0v3v79s3k7v vtursrii4n3z6ra bmz41r8dux5w0k6 rd692we86q